<?xml version="1.0" standalone="no"?>
<!DOCTYPE svg PUBLIC "-//W3C//DTD SVG 1.1//EN" "http://www.w3.org/Graphics/SVG/1.1/DTD/svg11.dtd" >
<svg xmlns="http://www.w3.org/2000/svg">
<metadata></metadata>
<defs>
<font id="ceria_lebaranregular" horiz-adv-x="690" >
<font-face units-per-em="2048" ascent="1638" descent="-410" />
<missing-glyph horiz-adv-x="366" />
<glyph horiz-adv-x="0" />
<glyph horiz-adv-x="0" />
<glyph horiz-adv-x="682" />
<glyph unicode="&#xd;" horiz-adv-x="366" />
<glyph unicode=" "  horiz-adv-x="366" />
<glyph unicode="&#x09;" horiz-adv-x="366" />
<glyph unicode="&#xa0;" horiz-adv-x="366" />
<glyph unicode="!" horiz-adv-x="520" d="M47 203q6 8 11 16.5t8.5 15.5t6.5 17t5.5 16t4.5 17t3 16t2 16.5t1.5 15t1.5 15.5t1 14q0 416 -4 904q0 65 59 142t121 105l101 43q-9 -11 -15.5 -22t-11 -24t-7.5 -22t-5 -24.5t-2.5 -21.5t-2 -23t-1.5 -20q0 -122 1 -468.5t1 -467.5q0 -64 -56.5 -124.5t-124.5 -90.5z M98 -2q0 43 32.5 74.5t76.5 31.5h-2q44 0 76 -31t32 -75q0 -45 -30.5 -75t-75.5 -32q-44 -1 -76.5 31.5t-32.5 75.5z" />
<glyph unicode="&#x22;" horiz-adv-x="444" d="M14 1305q13 55 62 79l57 35q-23 -14 -33 -41q-6 -23 4 -43l37 -63q27 -50 13 -103q-12 -52 -62 -79l-55 -31q22 13 31 39q5 19 -5 43l-36 63q-27 50 -13 101zM203 1305q16 56 61 79l58 35q-25 -18 -31 -41t4 -43l37 -63q27 -49 12 -103q-15 -52 -61 -79l-56 -31 q22 13 31 39q6 20 -4 43l-37 63q-26 48 -14 101z" />
<glyph unicode="#" horiz-adv-x="1445" d="M-12 422q-3 81 47 131q56 53 131 53h211l49 219h-172q-68 -6 -115 -53q-53 -56 -53 -131v184q0 76 53 129q54 54 129 54h201l31 137q28 123 48 165q46 95 153 113q27 4 59 4h106q-62 -34 -111 -132t-71 -189l-22 -98h182l30 137l3 15q28 122 55 168q55 95 190 99h13h106 q-62 -34 -111 -132t-71 -189l-23 -98h256q30 3 56 26q24 27 24 66v-92q0 -73 -53 -129q-54 -54 -131 -54h-195l-49 -219h156q67 6 114 53q54 57 54 132v-185q0 -74 -54 -131q-56 -53 -131 -53h-182l-35 -152q-1 -4 -2 -11q-29 -122 -56 -168q-54 -92 -189 -97h-11l-106 -2 q62 30 112 128.5t72 190.5l23 105h-183l-34 -152q-29 -124 -52 -168q-51 -94 -171 -106q-17 -2 -36 -2l-94 10q62 30 111.5 128t71.5 191l24 105h-272q-31 -3 -56 -25q-21 -23 -24 -65l-2 90h-2h-2zM569 596h183l49 219h-183z" />
<glyph unicode="$" horiz-adv-x="1007" d="M-8 952q-1 69 20.5 128t56.5 99.5t83.5 71t98.5 47.5t105 25q12 57 54 96q58 58 133 58h190q-77 0 -135 -58q-44 -44 -53 -100q66 -13 127 -37.5t108 -62.5t65 -82.5t-10 -102t-108 -116.5q0 82 -52 135.5t-132 79.5v-326q64 -21 111.5 -41t101.5 -52.5t88 -69.5 t57 -91.5t23 -118.5q0 -80 -22 -146.5t-59 -112.5t-87.5 -80t-104 -52t-112.5 -25v-8q0 -86 -43 -131q-51 -54 -136 -57l-94 4q38 -3 68 24q23 23 26 52v-2v108q-69 8 -130 28.5t-115 55t-85.5 90t-31.5 125.5q0 29 13.5 57t30 47.5t47.5 42t51 34.5t56 32t48 27 q-69 -41 -90 -115q-11 -54 -1 -94t43 -68.5t74 -45.5t90 -25v426q-65 22 -110 40.5t-97.5 48t-84.5 61.5t-53.5 77.5t-22.5 99.5zM201 1004q0 -44 41.5 -76.5t117.5 -59.5v291q-80 -12 -119.5 -43.5t-39.5 -111.5zM543 193q71 20 121.5 75.5t50.5 130.5q0 52 -44.5 90 t-127.5 70v-366z" />
<glyph unicode="%" horiz-adv-x="1361" d="M2 1155q0 104 75 179t179 75q106 0 181 -75t75 -179q0 -106 -75 -181t-181 -75q-104 0 -179 75t-75 181zM147 0q30 17 49 34t27 28.5t25 41.5l92 211l432 967q30 64 103 103.5t147 39.5h117q-9 -5 -17.5 -10.5t-14.5 -9.5t-12.5 -10t-10 -8.5t-9.5 -10t-8 -9.5t-7.5 -11 t-6.5 -10t-7.5 -12t-7.5 -13l-92 -213l-432 -965q-28 -64 -101.5 -103.5t-148.5 -39.5h-117zM152 1155q0 -119 104 -119q106 0 106 119q0 50 -24 83.5t-82 33.5q-104 0 -104 -117zM788 285q0 104 75 179t179 75q106 0 181 -75t75 -179q0 -106 -75 -181t-181 -75 q-104 0 -179 75t-75 181zM938 285q0 -119 104 -119q107 0 107 119q0 50 -24.5 83t-82.5 33q-56 0 -80 -33t-24 -83z" />
<glyph unicode="&#x26;" horiz-adv-x="1052" d="M-4 412h217q-8 -105 61.5 -179.5t174.5 -74.5h65q100 0 169 67t69 168q0 45 -16.5 86t-49 77t-61 61.5t-74 61.5t-66.5 54q94 6 157 72.5t63 161.5q0 108 -83 180t-188 49h2q-31 -167 -139 -217q-80 -37 -160 2q-69 34 -87 101q-8 35 1 71q25 94 108.5 149.5t213.5 61.5 v25q-171 -22 -253 54q-56 52 -42 117q12 61 77 86q1 0 3 1q85 31 167.5 -23.5t100.5 -161.5q111 23 154 45l32 -55q-60 -29 -168 -53q0 -2 1 -5t1 -5q0 -4 1.5 -11.5t1.5 -11.5q78 4 148.5 -9t130.5 -43.5t103.5 -77.5t68 -114.5t24.5 -150.5q0 -167 -99 -269 q69 -57 107.5 -136t38.5 -171q0 -164 -116.5 -278.5t-281.5 -114.5h-180q-83 0 -157.5 32.5t-128 87.5t-83.5 131t-28 159zM195 1522q-23 -52 115 -60q8 -1 32 -2q-27 52 -76.5 77.5t-70.5 -15.5zM205 1071q16 -14 39 -5t48 42t36 72q-163 -59 -123 -109z" />
<glyph unicode="'" horiz-adv-x="292" d="M33 1305q13 56 61 79l58 35q-23 -14 -33 -41q-6 -23 4 -43l37 -63q27 -49 12 -103q-12 -52 -61 -79l-56 -31q22 13 31 39q6 20 -4 43l-37 63q-27 49 -12 101z" />
<glyph unicode="(" horiz-adv-x="673" d="M-8 690q-1 214 49 387.5t137.5 285.5t204 172t250.5 60v-159q-191 -48 -312.5 -253.5t-121.5 -492.5q0 -285 121 -485t313 -246l6 -156q-135 -1 -251.5 56t-204.5 166t-139 280t-52 385z" />
<glyph unicode=")" horiz-adv-x="673" d="M-29 -203l9 6l-3 158q189 45 310 245t121 484q0 287 -121.5 492.5t-311.5 253.5l-2 159q133 0 249 -60t204 -172t139 -285.5t51 -387.5t-51 -385.5t-139 -281t-204.5 -167.5t-250.5 -59z" />
<glyph unicode="*" horiz-adv-x="577" d="M14 1239q6 20 25 29.5t39 3.5l135 -43v139q0 22 14.5 36.5t36.5 14.5q20 0 34.5 -14.5t14.5 -36.5v-139l136 43q20 6 38.5 -3.5t24.5 -29.5t-3.5 -39t-29.5 -26l-133 -44l82 -112q12 -17 9.5 -38.5t-19.5 -33.5t-38.5 -9.5t-33.5 19.5l-82 115l-84 -115 q-12 -17 -32 -19.5t-39 9.5q-17 12 -20 33.5t9 38.5l82 112l-133 44q-20 7 -29.5 26t-3.5 39z" />
<glyph unicode="+" horiz-adv-x="724" d="M-12 846q-3 -39 16 -58q22 -22 47 -22h180v92q0 66 45 111q47 47 113 47h78q-32 0 -55 -23t-23 -47v-180h92q66 0 113 -47q45 -42 45 -111l10 -78q0 34 -22 56t-45 22h-183v-92q0 -63 -47 -113q-48 -45 -110 -45h-78q29 0 55 23q23 23 23 47v180h-92q-64 0 -111 47 q-44 44 -47 111h-2z" />
<glyph unicode="," horiz-adv-x="444" d="M-12 -145q65 -3 114 43q44 41 50 96v2q-64 30 -64 104q0 48 34 82.5t83 34.5l2 16q47 0 82 -34.5t35 -81.5q0 -79 -23 -131.5t-70.5 -80.5t-104 -38.5t-138.5 -11.5z" />
<glyph unicode="-" horiz-adv-x="792" d="M33 424v84q0 70 47 117q52 49 119 49h413q26 0 50 24t24 60v-84q0 -67 -49 -119q-50 -47 -117 -47h-414q-26 0 -51 -25q-22 -25 -22 -59z" />
<glyph unicode="." horiz-adv-x="444" d="M82 117q0 47 35 81.5t82 34.5q49 0 83.5 -34t34.5 -82q0 -49 -34 -83t-84 -34q-48 0 -82.5 34t-34.5 83z" />
<glyph unicode="/" horiz-adv-x="782" d="M-74 -8q44 23 87 89t68.5 131.5t39.5 125.5l170 784q31 131 51 174q46 102 150 126q36 8 81 8h115q-66 -37 -119 -143.5t-77 -205.5l-173 -794q-31 -130 -54 -175q-49 -99 -161 -119q-30 -5 -65 -5z" />
<glyph unicode="0" horiz-adv-x="1071" d="M0 713q0 90 5 163t19.5 148t38.5 132.5t62.5 108.5t91 84.5t125.5 52.5t164 19q99 0 178.5 -28.5t132.5 -81t90 -118t57 -148.5t28.5 -162.5t8.5 -169.5q0 -93 -4 -164t-17 -148t-34.5 -133.5t-59 -109t-89 -85t-125 -52t-166.5 -19.5q-94 0 -169 20t-127.5 53.5 t-91 86.5t-61 109.5t-35.5 133.5t-17.5 147.5t-4.5 160.5zM236 713q0 -76 2.5 -133.5t9.5 -117.5t19 -103t32.5 -82t48.5 -63t67 -38t89 -14q49 0 87.5 14t66 37.5t47 63t31 82t18 103t8.5 117.5t2 134q0 88 -3.5 153t-13.5 130t-28 108.5t-46.5 78.5t-70.5 51.5t-98 16.5 t-99 -16.5t-72 -51.5t-48.5 -79t-30 -108t-14.5 -130t-4 -153z" />
<glyph unicode="1" horiz-adv-x="483" d="M0 1018v203q0 87 55 145q57 49 131 55q32 2 191 2h182q-83 0 -145 -59q-54 -54 -60 -127v-1034q0 -87 -59 -146q-57 -57 -143 -57h-101q42 0 72 27q26 30 29 61v1129q-52 -12 -97 -54q-55 -58 -55 -145z" />
<glyph unicode="2" horiz-adv-x="1040" d="M-4.5 208.5q-0.5 6.5 0 36t0.5 36.5v42t2 41.5t5 43t9.5 39.5t16 38t24.5 31t34 27t45 18t58 10l121 11q156 4 239 85t83 203q0 98 -42 180.5t-113.5 130t-155.5 46.5q-12 0 -43 1t-54 1.5t-54.5 -1t-54 -7.5t-44 -16t-32.5 -28.5t-11 -43.5v94q0 81 57 135 q29 30 78.5 45.5t88.5 18.5t97 4h17q134 -8 246 -81t176.5 -194t64.5 -262q0 -148 -71 -273.5t-193.5 -197t-267.5 -66.5h-27.5h-29t-26 -0.5t-27.5 -2.5t-23.5 -4.5t-23.5 -7.5t-19 -11t-18 -15t-13 -20q39 -71 141 -78h399q111 0 199 -61q82 -56 113 -144l32 -98 q-75 48 -122 66q-64 22 -119 22h-557q-84 0 -146 59q-14 15 -24.5 28.5t-17 31t-10.5 26.5t-5.5 32t-2 29.5z" />
<glyph unicode="3" horiz-adv-x="1019" d="M-6 363.5q0 26.5 1 71.5t1 63q0 -39 14.5 -71.5t44.5 -74.5q31 -46 71.5 -79t75.5 -49.5t79 -25.5t69.5 -10.5t59.5 -1.5h69q103 0 174.5 67.5t71.5 172.5q0 101 -70 163t-176 62h-69q-15 0 -23 -2v174h59h95q37 0 55 -4q82 75 82 187q0 101 -68.5 170.5t-169.5 72.5 q-76 -3 -135 -44.5t-86 -108.5q-15 7 -46 21.5t-46 22.5t-39.5 23t-36.5 29.5t-26 35t-19.5 46t-5.5 57.5v203q0 -86 57 -143q37 -37 80 -52q121 84 303 84q95 0 177 -24.5t147.5 -73.5t103 -130t37.5 -187q0 -172 -102 -279q71 -58 111 -141t40 -178q0 -171 -121 -290.5 t-292 -119.5h-189q-176 0 -282 109q-23 23 -38.5 55t-23 60.5t-11 70.5t-3.5 68.5z" />
<glyph unicode="4" horiz-adv-x="1019" d="M-39 672q32 20 53 43t43 61q42 98 123.5 280t98.5 222q28 63 101 102t146 39h119q-30 -16 -49 -32.5t-27 -29.5t-24 -42q-37 -83 -110.5 -250t-110.5 -250q-17 -35 -50 -65h402v469v-7q0 94 59 150q58 61 150 61h205q-85 0 -146 -61q-53 -50 -59 -127v-1034 q0 -84 -60 -144q-54 -57 -149 -57h-96q44 0 71 27q26 26 29 59v461h-530q-84 0 -144 57q-4 4 -24 36t-21 32z" />
<glyph unicode="5" horiz-adv-x="978" d="M-2.5 1181.5q-0.5 28.5 0 36t2 29.5t5.5 31.5t10 26.5t16 30.5t24 28.5q56 59 144 59h561q51 2 119 29q53 22 122 74l-32 -103q-28 -85 -113 -143q-88 -61 -201 -61h-399q-101 -7 -141 -80q5 -10 12.5 -18t14 -13.5t18 -10.5t19 -8t22.5 -5t21.5 -3t24.5 -1.5t24 -0.5h26 h25q145 5 268 -66t194.5 -197t71.5 -275q0 -141 -64.5 -262.5t-177 -195.5t-247.5 -81l2 2q-338 -31 -338 195v200q0 -84 57 -141q30 -30 71.5 -44.5t70 -16.5t80.5 -2h16q84 -1 156 46.5t114.5 130.5t42.5 181q-2 123 -85.5 204.5t-238.5 84.5l-122 10q-41 3 -72.5 15.5 t-51.5 27.5t-34.5 41t-21.5 46t-10.5 54.5t-4 53.5t-0.5 55q0 8 -0.5 36.5z" />
<glyph unicode="6" horiz-adv-x="1017" d="M-6 475q-2 147 90 356l197 453q28 63 101.5 103t147.5 40h119q-30 -17 -49 -34t-27 -29t-24 -41l-94 -213l-70 -162q50 4 80 4h6q156 0 265.5 -65t160.5 -171t51 -241q0 -99 -32 -185t-91 -150.5t-150.5 -102t-203.5 -37.5q-222 0 -348.5 135t-128.5 340zM211 475 q0 -128 67.5 -212.5t186.5 -84.5t186.5 84.5t67.5 212.5q0 131 -65 215t-189 84q-123 0 -188.5 -87.5t-65.5 -211.5z" />
<glyph unicode="7" horiz-adv-x="946" d="M-53 1149l47 108q28 66 93 117t134 51q613 -5 733 -4q-67 -37 -121.5 -146t-78.5 -210l-176 -762q-31 -133 -57 -182q-52 -101 -173 -117q-26 -4 -57 -4h-115q70 36 124.5 143.5t80.5 212.5l172 752q5 17 20 86l-260 2l-231 2q-32 -2 -47.5 -5t-38.5 -13t-49 -31z" />
<glyph unicode="8" horiz-adv-x="1062" d="M-6 412q-1 94 35.5 175.5t103.5 139.5q-104 104 -104 283q0 106 37.5 187t102.5 130t146.5 73t176.5 23h6q94 1 175.5 -23t147 -73t103 -130t37.5 -187q0 -171 -103 -279q71 -58 111.5 -141t40.5 -178q0 -170 -121 -290t-293 -120h-188q-170 0 -291.5 120t-122.5 290z M215 410q0 -106 71.5 -176t174.5 -70h69q104 0 176 70t72 176q0 68 -33.5 124t-89.5 87q-77 -21 -166 -21q-81 0 -155 18q-55 -31 -87 -86t-32 -122zM254 1008q0 -103 68.5 -172t169.5 -74q100 5 167.5 74t67.5 172q0 101 -67 169.5t-168 73.5q-102 -5 -170 -73.5 t-68 -169.5z" />
<glyph unicode="9" horiz-adv-x="983" d="M0 1004q0 106 37.5 187t102.5 130t146.5 73t176.5 23q95 1 176.5 -23t146.5 -73t102.5 -130t37.5 -187q0 -34 -20.5 -105.5t-45.5 -130.5l-53 -121l-221 -508q-28 -63 -101 -101t-147 -38h-119q9 5 17.5 9.5t14.5 8t12.5 9.5t10 8.5t9 9.5t7.5 9t7.5 11t6.5 11t7.5 13 t7.5 13l93 211l125 285q-50 -4 -76 -4q-94 0 -175.5 24.5t-146 72.5t-102 128.5t-37.5 184.5zM225 1001q0 -103 69 -171.5t169 -73.5q100 5 168.5 73.5t68.5 171.5q0 101 -68 171t-169 73q-101 -3 -169.5 -73t-68.5 -171z" />
<glyph unicode=":" horiz-adv-x="444" d="M84 164q0 48 34 82.5t83 34.5q47 0 81.5 -35t34.5 -82q0 -49 -34 -83t-82 -34q-49 0 -83 33.5t-34 83.5zM84 758q0 48 34 82t83 34q47 0 81.5 -34.5t34.5 -81.5t-34.5 -82t-81.5 -35q-49 0 -83 34.5t-34 82.5z" />
<glyph unicode=";" horiz-adv-x="444" d="M-20 -104q65 -3 114 43q44 41 47 98q-28 15 -45.5 43t-17.5 61q0 49 34.5 83t82.5 34l2 14q49 0 82.5 -33t33.5 -83q0 -79 -23 -131.5t-70 -79.5t-103 -37.5t-137 -11.5zM88 758q0 48 34 82t83 34q47 0 82 -34.5t35 -81.5t-35 -82t-82 -35q-49 0 -83 34.5t-34 82.5z" />
<glyph unicode="&#x3c;" horiz-adv-x="802" d="M-41 473q57 21 119 67t102.5 86.5t106 109.5t94.5 98q42 42 115.5 52t126.5 -12l96 -34q-29 -4 -50 -12.5t-30 -15.5t-31 -26q-60 -62 -166 -163t-151 -146l-10 -10l10 -10q44 -44 150 -145.5t167 -164.5q21 -18 31 -25.5t30.5 -15.5t49.5 -12h2l-96 -35 q-54 -22 -127 -11.5t-115 52.5q-13 13 -63.5 66t-94.5 97t-98 94.5t-98 81.5t-70 34z" />
<glyph unicode="=" horiz-adv-x="806" d="M45 463v78q0 66 47 110q44 47 111 47h430q27 0 47 23q22 19 22 55v-78q0 -64 -45 -112q-48 -45 -110 -45h-432q-24 0 -47 -23q-23 -26 -23 -55zM45 694v78q0 64 47 111t111 47h430q28 0 47 22q22 19 22 56v-78q0 -68 -45 -113t-110 -45h-432q-25 0 -47 -22 q-23 -26 -23 -56z" />
<glyph unicode="&#x3e;" horiz-adv-x="802" d="M-23 840l93 34q54 22 127 12t114 -52q28 -27 94.5 -97.5t107 -110t104 -86t122.5 -67.5q-27 -3 -72 -34t-99.5 -81.5t-98 -94t-95 -97.5t-63.5 -66q-41 -42 -114 -52.5t-127 11.5l-90 35q27 4 47 12.5t28.5 14.5t32.5 26q61 65 170.5 170t144.5 140q2 2 6.5 5t6.5 5 q-2 2 -6.5 5t-6.5 5q-37 37 -145.5 140.5t-169.5 168.5q-24 20 -32.5 26.5t-29.5 15t-49 12.5z" />
<glyph unicode="?" horiz-adv-x="993" d="M47 1204v168q0 71 50.5 119.5t121.5 48.5l246 2q167 0 285 -118t118 -285q0 -159 -108.5 -274t-265.5 -126v-444q3 -38 31 -62t67 -24h-98q-83 0 -140 57q-57 54 -57 140v491h111q101 0 170 68.5t69 171.5q0 100 -68.5 168.5t-170.5 68.5h-175q-88 0 -139 -51 q-47 -50 -47 -119zM309 -10q0 44 31 75t74 31v10q44 0 75 -31t31 -75q0 -42 -31 -73.5t-75 -32.5q-43 -1 -74 27.5t-31 68.5z" />
<glyph unicode="@" horiz-adv-x="1468" d="M0 715q0 157 63 294.5t173 231.5q-7 -256 -7 -526q0 -202 122.5 -321.5t322.5 -127.5q108 1 196.5 27.5t155 79.5t103 139.5t36.5 200.5q0 89 -31.5 166.5t-85 132.5t-121 93t-143.5 54q-93 19 -155 -34q-46 -39 -39 -83q8 -50 80 -59q14 -2 30 -2h56q65 0 110 -45 q47 -47 47 -111v-311q0 -64 -47 -111q-45 -45 -110 -45h-156q-66 0 -111 45q-45 48 -45 111t45 111q45 45 111 45h88q26 3 45 22q20 20 23 45v19q-3 27 -23 47q-19 19 -45 22h-88q-63 0 -111 45q-45 48 -45 111v178q0 92 66 158q88 88 321 65q157 -16 286.5 -108.5 t204.5 -240.5t75 -320q0 -158 -52.5 -285.5t-146.5 -211.5t-223.5 -129.5t-284.5 -45.5q-195 0 -353 86t-247.5 240.5t-89.5 347.5zM557 514q0 -24 16.5 -40.5t40.5 -16.5q23 0 39.5 17t16.5 40t-16.5 39t-39.5 16q-25 0 -41 -16t-16 -39z" />
<glyph unicode="A" horiz-adv-x="1210" d="M-1 82q1 10 1.5 16t3.5 18t5 17.5t7 19t7 19.5l346 952q47 132 73 177q65 116 168 116l211 4q-90 -3 -149 -65q-46 -48 -50 -106q-1 -8 0 -17q0 -51 23 -109l340 -936q35 -94 56 -124q46 -66 147 -66h-203q-43 0 -77 12t-56 29.5t-41 48t-30 56.5t-25 67l-70 192h-344 q-100 -266 -111 -297q-8 -24 -8 -43q0 -63 92 -63h-112q-10 0 -32.5 -0.5t-34.5 0t-28.5 1t-29 3t-23.5 6.5q-12 6 -21.5 13.5t-16 13.5t-10.5 15q-5 8 -7 14q-2 4 -1 11v5zM387 571h242l-121 349z" />
<glyph unicode="B" horiz-adv-x="1077" d="M-96 -6h6q33 0 58 21q27 23 30 61v1134q0 88 59 144q52 52 148 59l297 2q172 0 294 -122t122 -294q0 -140 -91 -256l4 9q80 -58 126.5 -147t46.5 -191q0 -171 -122 -291.5t-294 -120.5h-168q-38 0 -54.5 1t-43 12t-50.5 34q-40 40 -49 101q-11 -52 -53 -97 q-53 -53 -168 -57zM225 410q0 -94 24.5 -147t90 -80t184.5 -27q104 0 176 70.5t72 176.5q0 102 -73.5 173t-174.5 71h-299v-237zM229 827l359 2q23 0 33 -2q73 73 73 177q0 67 -24 116.5t-67 77.5t-95 40q-48 12 -106 11h-9q-77 0 -120.5 -37t-43.5 -104v-281z" />
<glyph unicode="C" horiz-adv-x="1126" d="M0 711q0 190 86.5 352t235.5 257t325 97l178 2q87 6 148 70q69 69 69 168v-238q0 -102 -69 -168q-66 -69 -168 -69h-148q-88 0 -166.5 -41.5t-132 -108t-84 -151t-30.5 -170.5q0 -124 55.5 -231.5t148 -171.5t197.5 -68q15 0 52.5 -2t65 -1.5t66 2t66 9t53.5 20t39.5 35 t13.5 53.5v-116q0 -97 -67 -164q-77 -77 -263 -77q-36 0 -77 3v4q-165 17 -301 115t-214.5 254t-78.5 336z" />
<glyph unicode="D" horiz-adv-x="1075" d="M-88 2q36 0 65 29q20 23 23 59v1018q0 23 9.5 51.5t31.5 38.5q-30 22 -49 53t-27.5 62.5t-10.5 76.5q-1 26 -1 49q1 17 1 33q2 37 3.5 93t1.5 96v-9q0 -94 61 -161q64 -64 150 -70l178 -2q177 -2 327.5 -97.5t238 -258.5t87.5 -354q0 -181 -79.5 -338t-216.5 -255.5 t-302 -115.5h-413zM215 231h32q27 1 61 1q58 2 67 1q106 4 193 68.5t136.5 172t49.5 233.5q0 118 -45.5 224.5t-137 177.5t-209.5 71h-147v-949z" />
<glyph unicode="E" horiz-adv-x="1064" d="M0 203v1018q0 87 59 143q59 59 142 59h2h598q84 0 143 -59q60 -57 60 -143v-103q0 45 -29 74q-33 29 -62 29h-598q-30 0 -59 -29q-26 -26 -29 -62v-346h371q70 3 127 60q59 56 59 143v-203q0 -86 -59 -145t-143 -59h-355v-289q0 -31 29 -60q28 -28 59 -28h598q34 0 62 28 q29 29 29 72v-100q0 -86 -60 -146q-57 -57 -143 -57h-598h-2q-85 0 -142 57q-59 59 -59 146z" />
<glyph unicode="F" horiz-adv-x="1052" d="M0 205v1016q0 87 59 143q59 59 142 59h2h598q82 0 141 -59q62 -59 62 -143v-103q0 43 -31 74q-29 29 -60 29h-598q-30 0 -59 -29q-26 -23 -29 -59v-349h369q76 6 127 60q61 61 61 145v-205q0 -85 -61 -143q-56 -59 -141 -59h-355v-273q0 -8 -0.5 -43.5t0 -47t3.5 -40.5 t9.5 -45t18.5 -37.5t29 -38.5q60 -57 143 -57h-203q-27 0 -39 2q-73 3 -129 59q-59 56 -59 144z" />
<glyph unicode="G" horiz-adv-x="1110" d="M0 711q0 190 87 352t237 257.5t327 98.5l176 2q85 6 150 68q70 70 70 170v-238q0 -100 -70 -170q-69 -69 -168 -69h-147q-118 0 -215.5 -70.5t-149 -177.5t-51.5 -223q0 -191 109 -327.5t268 -143.5q9 0 65 -2h61h31v376q-6 74 -57 125q-34 34 -57.5 47t-63.5 13h203 q80 0 143 -60q58 -58 58 -141v-362v-3q-3 -93 -70 -157q-77 -77 -263 -77q-36 0 -77 3v4q-165 17 -301.5 115t-215.5 254t-79 336z" />
<glyph unicode="H" horiz-adv-x="1134" d="M-88 0q39 0 65 29q20 20 23 59v1131q0 78 68.5 140t146.5 62h205q-85 0 -146 -61q-53 -53 -59 -125v-416h12h473q36 3 62 29q2 2 5 6t5 6v359q0 82 59 141q58 61 156 61h203q-85 0 -143 -61q-54 -51 -60 -125v-1032q0 -80 -67.5 -141.5t-147.5 -61.5h-100q42 0 71 29 q26 26 29 59v647q-14 -32 -41 -59q-60 -60 -145 -60h-371v-413q0 -87 -59 -146q-57 -57 -156 -57h-88z" />
<glyph unicode="I" horiz-adv-x="374" d="M-53 2q39 0 63 27q26 30 29 61v1131q0 82 59 141q28 29 75.5 45t92.5 16h203q-85 0 -143 -61q-54 -51 -60 -127v-1030q0 -84 -59 -146q-27 -27 -75 -42t-93 -15h-92z" />
<glyph unicode="J" horiz-adv-x="901" d="M0 346v256q0 89 57 143q57 60 144 60h215q-87 0 -144 -60q-53 -50 -59 -127v-260q0 -40 14.5 -70t34.5 -45.5t47 -25t46 -12t38 -2.5q28 0 67.5 13.5t76 46t36.5 73.5v885q0 82 58 143q29 28 77 43.5t93 15.5h203q-84 0 -146 -59q-54 -57 -57 -127v-924q0 -68 -25.5 -123 t-66.5 -89.5t-97 -58t-114 -33t-119 -9.5q-76 0 -142.5 20.5t-120.5 60.5t-85 108.5t-31 156.5z" />
<glyph unicode="K" horiz-adv-x="1079" d="M-88 0q38 0 65 27q23 30 23 61v1133q0 87 59 143q28 29 75.5 45t92.5 16h205q-84 0 -145 -61q-54 -51 -60 -127v-1034q0 -84 -59 -146q-27 -27 -75 -42t-93 -15h-88zM303 797q73 29 125 118q21 36 92.5 164t110.5 195q39 66 108.5 104.5t141.5 38.5h129 q-46 -24 -69 -45.5t-44 -58.5q-33 -58 -107 -192.5t-104 -186.5q-41 -73 -91.5 -103.5t-115.5 -37.5q65 -11 122 -48.5t81 -91.5l154 -348l92 -213q2 -3 8.5 -14t8 -13.5t7 -11.5t8.5 -11.5t9 -9.5t11 -11l12.5 -10t16.5 -11t19 -10v6h-131h-8q-70 0 -139 35 q-73 37 -101 100l-151 350l-95 211q-15 29 -23.5 42t-27.5 29.5t-49 33.5z" />
<glyph unicode="L" horiz-adv-x="987" d="M-111 1425h13h98q46 0 98.5 -16t79.5 -43q60 -60 60 -145v-981h514q74 3 127 59q61 58 61 131v-190q0 -47 -16 -100.5t-45 -82.5q-57 -57 -142 -57h-510q-46 0 -93.5 14.5t-76.5 42.5q-57 60 -57 144v1134q-3 32 -33 62q-36 28 -78 28z" />
<glyph unicode="M" horiz-adv-x="1525" d="M-92 0q37 0 64 25t28 63v1135q0 85 59 141q17 17 38.5 29t38.5 18t46 9q28 4 42 4h18.5h29.5q34 0 43 -1q75 0 148.5 -39t101.5 -102l160 -369l160 363q28 65 100.5 104t147.5 39q64 0 195.5 1t193.5 1q-43 0 -72 -26q-26 -29 -29 -62v-1132q0 -88 -59 -144 q-55 -57 -156 -61v-2l-205 -2h9q82 0 137 55q53 50 59 127v1034q0 70 43 125q-49 -33 -82 -66.5t-45.5 -53t-32.5 -60.5t-32 -61l-207 -474l31 -69q16 -30 23.5 -41.5t27 -28.5t49.5 -33h-119q-74 0 -147 39.5t-101 102.5l-223 510q-10 22 -32.5 77t-42 98t-37.5 73 q-46 -52 -52 -119v-1034q0 -85 -59 -144q-27 -29 -74.5 -44t-93.5 -15z" />
<glyph unicode="N" horiz-adv-x="1085" d="M-92 0q37 0 64 24t28 62v1135q0 87 59 143q28 29 75.5 45t92.5 16h33q82 0 144.5 -44.5t99.5 -118.5t64.5 -174.5t41 -208.5t27.5 -225t25.5 -219t34 -195.5t53.5 -149.5q29 47 32 94v1037q0 82 60 145q28 28 76 43.5t92 15.5h100q-39 0 -67.5 -25.5t-32.5 -64.5v-1134 q0 -84 -60 -144q-27 -29 -74.5 -43t-93.5 -14q-91 0 -159 43.5t-107 116t-66.5 171.5t-40 206t-26 224t-24.5 220t-35.5 199.5t-59.5 158.5q-34 -46 -37 -102v-1036q0 -85 -59 -144q-27 -29 -74.5 -43t-93.5 -14h-92z" />
<glyph unicode="O" horiz-adv-x="1077" d="M0 711q0 89 5.5 162t20 147.5t38.5 132t62.5 108.5t91 84.5t125.5 52.5t163 19q51 0 153.5 -2t153.5 -2q74 6 125 60q59 59 59 141v-201q0 -116 -102 -170q60 -90 82 -220.5t22 -311.5q0 -93 -4 -163.5t-16.5 -147.5t-34 -133t-59 -108.5t-88.5 -85t-124.5 -52 t-166.5 -19.5q-92 0 -166 19.5t-126.5 52.5t-91 84.5t-62 108.5t-37 133t-18.5 148t-5 163zM236 711q0 -107 5.5 -183t22 -149.5t45.5 -118t78 -71.5t117 -27q49 0 87.5 14t66 37.5t47 63t31 82t18 102.5t8.5 117t2 133q0 88 -3.5 153t-13.5 131t-28 110.5t-46.5 80.5 t-70.5 53.5t-98 17.5q-67 0 -115 -27t-77.5 -72t-46.5 -117t-23 -149t-6 -181z" />
<glyph unicode="P" horiz-adv-x="1040" d="M-86 0q37 0 66 29q22 25 22 61v1131q0 86 57 143q51 51 148 59h381q171 0 292 -121t121 -292q0 -172 -120.5 -292t-292.5 -120h-361v-393q0 -87 -59 -146q-28 -28 -75 -43.5t-91 -15.5h-88zM227 762h301q104 0 175 70t71 176q0 103 -71 173t-175 70h-180q-51 0 -88 -43 q-33 -36 -33 -98v-348z" />
<glyph unicode="Q" horiz-adv-x="1075" d="M0 713q0 90 5 163t19.5 148t38.5 132.5t62.5 108.5t91 84.5t125.5 52.5t164 19q99 0 178.5 -28.5t132.5 -81t90 -118t57 -148.5t28.5 -162.5t8.5 -169.5q0 -93 -4 -164t-17 -148t-34.5 -133.5t-59 -109t-89 -85t-125 -52t-166.5 -19.5q-94 0 -169 20t-127.5 53.5 t-91 86.5t-61 109.5t-35.5 133.5t-17.5 147.5t-4.5 160.5zM147 -39v186l3 -9q3 -10 9.5 -27t15.5 -36.5t22 -39.5t28.5 -36.5t35.5 -27t42 -10.5h459q85 0 149 -61q60 -60 60 -148v-106q0 43 -29 75q-28 31 -63 31h-523q-82 0 -145 60q-64 64 -64 149zM236 713 q0 -76 2.5 -133.5t9.5 -117.5t19 -103t32.5 -82t48.5 -63t67 -38t89 -14q49 0 87.5 14t66 37.5t47 63t31 82t18 103t8.5 117.5t2 134q0 88 -3.5 153t-13.5 130t-28 108.5t-46.5 78.5t-70.5 51.5t-98 16.5t-99 -16.5t-72 -51.5t-48.5 -79t-30 -108t-14.5 -130t-4 -153z" />
<glyph unicode="R" horiz-adv-x="1056" d="M-84 0q37 0 66 29q20 26 20 61v1131q0 86 57 143q51 51 148 59h381q172 0 292.5 -120.5t120.5 -292.5q0 -132 -75 -237t-195 -148l133 -308l94 -213q16 -28 24 -40.5t27 -29.5t48 -34h-117q-74 0 -147 40t-101 103l-200 457h-263v-395q0 -85 -61 -146q-28 -28 -75 -43.5 t-91 -15.5h-86zM227 762h301q104 0 176 70t72 176q0 103 -71 173t-177 70h-178q-52 0 -90 -41q-33 -39 -33 -100v-348z" />
<glyph unicode="S" horiz-adv-x="1054" d="M-2 1018v5q0 85 30 153q31 70 81 115.5t115.5 76.5t130.5 44t130 13q73 -1 122 -7.5t86 -25.5t49.5 -28.5t48.5 -40.5v66q0 84 57 141q61 61 143 61h103q-44 0 -74 -30q-26 -26 -29 -60v-282q0 -37 -10.5 -66.5t-34.5 -54.5t-43.5 -40t-57 -39.5t-54.5 -37.5 q0 59 -21 103.5t-53.5 70.5t-77 42t-84.5 21t-84 5q-54 0 -95 -8t-76.5 -27.5t-54 -57.5t-18.5 -94q0 -36 26.5 -64.5t71.5 -49.5t103.5 -40t123 -39t128.5 -43.5t122.5 -57.5t103.5 -76t71.5 -103.5t26.5 -136.5q0 -74 -16.5 -135.5t-45 -105t-69.5 -76.5t-85.5 -53.5 t-98 -33t-103 -17.5t-103.5 -5q-63 0 -126 10t-127.5 34t-113 60t-79.5 93t-31 127q0 32 14 62t31 51t51.5 46t53.5 36.5t60.5 34t51.5 28.5q-73 -45 -94 -123q-8 -30 -8 -57q0 -24 6 -44q14 -44 46 -74.5t79 -49t96 -26.5q44 -7 88 -7h11q47 2 95 14.5t93.5 37t74.5 68.5 t29 101q0 52 -43 92.5t-112.5 69t-153 55.5t-167.5 59.5t-153 72.5t-113 103.5t-44 143.5z" />
<glyph unicode="T" horiz-adv-x="1202" d="M-33 1143l43 106q29 68 95 120t135 52h555h229q46 3 71.5 12t63.5 40l-47 -109q-29 -68 -94 -119t-135 -51h-217v-989q0 -84 -60 -144q-29 -29 -76 -44t-92 -15h-205q87 0 146 59q53 53 59 127v1004h-106h-232q-31 -2 -46 -5t-38 -13t-49 -31z" />
<glyph unicode="U" horiz-adv-x="1099" d="M0 715v473q0 98 70 168q69 69 166 69h116q-48 0 -82 -34q-27 -25 -34 -70q0 -102 1 -304t1 -302q0 -89 3.5 -155t13.5 -133t29 -112.5t48 -82.5t73.5 -54.5t102.5 -17.5q44 0 79 10t61.5 31t46 48t33 66.5t22 80t13 95.5t6 106t1.5 118q0 78 1 236t1 237q0 98 70 168 q69 69 168 69h116q-50 0 -84 -34q-29 -26 -32 -70v-606q0 -93 -4 -164.5t-17 -149t-35 -134t-60 -109.5t-90 -86t-126 -52.5t-168 -19.5t-168.5 19.5t-127.5 52.5t-92 85.5t-62 109.5t-37 134t-18.5 149.5t-4.5 164.5z" />
<glyph unicode="V" horiz-adv-x="1079" d="M-84 0q37 0 66 29q22 25 22 59h-2l-2 1133h-2v9q0 81 53 134q62 59 156 59h205q-84 0 -146 -59q-53 -56 -59 -127v-1034q0 -38 -8 -62q105 91 137 174l360 971q28 63 101.5 103.5t146.5 40.5h119q-12 -6 -21.5 -13t-16.5 -11.5t-14.5 -12.5t-11 -11.5t-10 -13t-8.5 -12.5 t-9 -15t-9 -16l-93 -213l-362 -969q-28 -64 -101 -103.5t-147 -39.5h-274h-70z" />
<glyph unicode="W" horiz-adv-x="1613" d="M-2 1193q9 64 32.5 115t75.5 83.5t125 33.5q35 0 121 -26q-74 -25 -104 -63q-28 -35 -28 -87v-7q2 -57 16 -142q16 -99 64.5 -386.5t59.5 -353.5q25 -131 68 -233h2l43 201l105 483q16 77 71 129t127 66q31 6 63 5q43 0 89 -10q-37 -37 -49 -80q-9 -31 -9 -60 q0 -11 2 -21q4 -38 20 -110q3 -14 5 -21l82 -381l43 -201q50 117 68 233l129 752q23 133 101 222t196 89h86q-50 -37 -92 -147.5t-56 -206.5l-131 -762q-22 -130 -100.5 -217.5t-184.5 -87.5q-98 0 -168.5 60t-83.5 118l-59 307l-61 -307q-11 -58 -81.5 -118t-170.5 -60 q-106 0 -184.5 87.5t-100.5 217.5q-120 717 -127 758q-8 38 -8 76q0 26 4 52z" />
<glyph unicode="X" horiz-adv-x="1077" d="M-27 0q41 24 58.5 44t38.5 60l51 117q87 197 239 512l-147 309q-163 340 -227 379h118q107 0 168.5 -50t108.5 -150q21 -42 58 -119.5t48 -100.5q21 41 59 118t50 102q23 49 46 83t55 62t75.5 41.5t99.5 13.5h123q-66 -39 -229 -379l-148 -309q164 -340 238 -512l53 -117 q21 -40 39 -60t60 -44h-117q-110 0 -170.5 51.5t-108.5 155.5l-125 256l-122 -256q-50 -105 -110.5 -156t-168.5 -51h-113z" />
<glyph unicode="Y" horiz-adv-x="1157" d="M-25 1423h115q74 0 147 -39.5t101 -103.5q22 -36 97 -176t118 -215q34 62 111.5 206.5t101.5 184.5q28 64 101 103.5t147 39.5h119q-33 -18 -94.5 -111t-108.5 -178t-117 -217q-13 -26 -20 -38q-46 -89 -140 -246h2v-430q0 -84 -57 -144q-62 -59 -158 -59h-202 q84 0 143 59q53 53 59 127v457q-10 22 -102 191q-12 23 -47.5 89.5t-57 105.5t-56 102t-59.5 103.5t-53.5 84t-50.5 69.5t-39 35z" />
<glyph unicode="Z" horiz-adv-x="1054" d="M-63 31q70 20 144 113t116 184l333 680q27 57 42 86t41.5 66.5t54.5 58.5h-486q-72 -3 -127 -58q-59 -59 -59 -145l-2 203h-2v9q0 83 53 136q57 57 141 57h809q-3 -5 -62.5 -116.5t-122 -230.5t-77.5 -150l-330 -691q-8 -14 -14 -28h416q70 3 121 57q55 58 55 138v8 l2 -203q0 -87 -59 -146q-54 -57 -140 -57h-577q-128 0 -270 29z" />
<glyph unicode="[" horiz-adv-x="466" d="M10 135v1125v14q0 89 60 149q67 64 163 64h211q-85 0 -149 -64q-56 -56 -62 -133v-1157q6 -74 62 -133q63 -60 149 -63l-211 -3v-2q-96 -3 -163 54q-60 60 -60 149z" />
<glyph unicode="\" horiz-adv-x="802" d="M-43 1425h113q75 0 125 -20t79.5 -68t42 -85t30.5 -113q2 -7 3 -11.5t2 -9.5l170 -784q24 -102 77.5 -208t121.5 -140l2 6l-117 -2q-44 0 -79.5 7.5t-60.5 19.5t-45 34t-33 42.5t-24.5 53t-18 58t-16.5 65.5q-2 9 -3 13l-172 794q-24 98 -77.5 204.5t-119.5 143.5z" />
<glyph unicode="]" horiz-adv-x="466" d="M-39 1473h207q100 0 164 -64q61 -61 61 -149l4 14v-1124q0 -89 -61 -150q-63 -60 -164 -63v-3l-209 -2q82 -3 148 54q56 59 59 133v1157q-3 77 -59 133q-67 64 -150 64z" />
<glyph unicode="a" horiz-adv-x="706" d="M-2 205q0 84 57 141q62 62 146 62h112q35 3 60 28q23 21 30 60v24q-7 39 -30 62q-25 25 -60 28h-112h-2q-81 0 -144 60q-57 60 -57 143v205q0 -86 57 -146q56 -53 127 -59h221q88 0 144 -59q59 -59 59 -144v-405q0 -84 -59 -146q-59 -59 -144 -59h-202h-2q-82 0 -144 59 q-57 60 -57 146zM143 205q0 -31 21.5 -52.5t52.5 -21.5t52.5 21.5t21.5 52.5q0 29 -21.5 50t-52.5 21t-52.5 -21t-21.5 -50z" />
<glyph unicode="b" horiz-adv-x="700" d="M2 205v1014q0 82 59 141q58 61 144 61h203q-86 0 -144 -61q-53 -50 -59 -125v-334q3 -34 28 -59q26 -26 60 -29h115q85 0 143 -61q59 -59 59 -142v-405q0 -85 -59 -144q-56 -59 -143 -59h-203h-2q-86 0 -142 59q-59 59 -59 144zM297 188q0 -31 21.5 -52t52.5 -21t52 21 t21 52v418q0 30 -21 51t-52 21t-52.5 -21.5t-21.5 -50.5v-418z" />
<glyph unicode="c" d="M0 205v407q0 90 57 144q58 61 144 61h317q36 3 62 29q30 30 30 74v-103q0 -84 -61 -145q-60 -60 -143 -60h-115q-34 -3 -62 -28q-25 -28 -28 -62v-227q3 -37 28 -62q28 -25 62 -28h115q84 0 143 -62q61 -58 61 -141v-190q0 81 -61 139q-57 51 -127 51h-221q-87 0 -144 57 t-57 146z" />
<glyph unicode="d" d="M0 205v405q0 85 57 142q58 61 144 61h112q36 3 62 29q25 25 28 59v318q0 83 58 141q61 61 145 61h201q-82 0 -143 -61q-55 -55 -58 -127v-1028q0 -85 -59 -144t-144 -59h-202q-88 0 -144 59q-57 57 -57 144zM164 188q0 -31 21.5 -52t52.5 -21q29 0 50 21t21 52v418 q0 29 -21 50.5t-50 21.5q-31 0 -52.5 -21.5t-21.5 -50.5v-418zM403 2z" />
<glyph unicode="e" d="M0 205v405q0 89 55 144q61 61 146 61h202q86 0 144 -61q61 -58 61 -144q0 -82 -61 -143q-59 -59 -144 -59h-114q-34 -3 -60 -29q-25 -28 -28 -62v-24q3 -35 28 -60t60 -28h131q77 6 127 59q61 58 61 144v-203q0 -85 -61 -146q-57 -57 -144 -57h-202h-2q-84 0 -144 57 q-55 58 -55 146zM285 608q0 -31 22 -52t53 -21q30 0 52 21.5t22 51.5t-22 52t-52 22q-31 0 -53 -21.5t-22 -52.5z" />
<glyph unicode="f" horiz-adv-x="471" d="M-88 2q40 0 68 31q22 25 22 61v1129q0 81 59 143q60 57 144 57v2v-2v2h10v-2q83 0 143 -57q60 -63 60 -143h2v-205q0 35 -18 86t-51.5 93t-69.5 42q-46 0 -56 -38t-10 -163v-26v-203h2h205q-87 0 -146 -59q-30 -30 -44 -68t-15.5 -62.5t-1.5 -78.5v-334q0 -87 -57 -144 q-61 -61 -146 -61h-100z" />
<glyph unicode="g" horiz-adv-x="700" d="M0 -162q0 -88 57 -151q58 -58 127 -64l131 -2q36 0 62 23t29 53v225q-2 28 -29 55q-30 23 -62 23h-112h-2q-84 0 -144 57q-57 60 -57 146v407q0 84 57 144q62 59 146 59h203q84 0 143 -59q61 -61 61 -144v-1016v-2q0 -85 -61 -149q-14 -15 -29 -26t-34 -18t-31.5 -11.5 t-36 -6.5t-33.5 -2.5t-38.5 -1t-35.5 -0.5q-29 1 -63 -1h-12q-28 0 -60 6q-38 6 -72 18t-62.5 39t-41.5 67v119v-2v215zM170 178q0 -31 21.5 -52.5t52.5 -21.5t52 21.5t21 52.5v422q0 30 -21.5 52t-51.5 22t-52 -22t-22 -52v-422z" />
<glyph unicode="h" d="M-98 0q36 0 65 29q20 23 23 59v1131q0 84 59 143q58 61 144 61h204q-84 0 -145 -61q-53 -53 -59 -127v-422h204q84 0 142 -61q61 -58 61 -142v-407q0 -86 -61 -144q-59 -59 -142 -59h-102q40 0 72 29q24 24 30 59v432q-6 36 -30 60t-62 30h-22q-34 -6 -62 -30 q-25 -25 -28 -60v-317q0 -87 -60 -144q-59 -59 -143 -59h-88z" />
<glyph unicode="i" horiz-adv-x="374" d="M-127 815h199q87 0 143 -59q61 -58 61 -144v-522q3 -35 29 -61q32 -29 74 -29h-96h-2q-82 0 -144 59q-59 62 -59 146v424q-3 70 -60 127q-53 59 -145 59zM72 1012q0 40 28 71q31 31 74 31q41 0 72 -31q30 -30 30 -71q0 -44 -30 -74q-32 -29 -72 -29q-42 0 -74 29 q-28 31 -28 74z" />
<glyph unicode="j" horiz-adv-x="385" d="M-131 -229q-1 -36 15.5 -88t48 -95.5t65.5 -44.5q25 -1 38 6t19.5 35t7 51t0.5 88v41v846q0 82 60 142q61 61 145 61h103q-43 0 -74 -31q-26 -23 -29 -59v-1172v-2q0 -101 -63 -139q-15 -9 -42 -16t-47 -10l-20 -2q-14 0 -36.5 0.5t-68.5 10.5t-65 29q-51 49 -55 146z M63 977q0 40 29 72q28 28 74 28q44 0 72 -28q30 -30 30 -72q0 -44 -30 -74q-32 -29 -72 -29q-42 0 -74 29q-29 32 -29 74z" />
<glyph unicode="k" horiz-adv-x="737" d="M-86 0q37 0 66 29q22 25 22 59v1133q0 84 57 141q58 61 144 61h205q-85 0 -146 -61q-53 -50 -59 -127v-737l149 217q51 69 131 84q21 4 41 4q57 0 111 -35l82 -57q-25 17 -56 17q-9 0 -18 -1q-36 -6 -57 -33l-172 -250l129 -256q3 -5 15.5 -31t19 -38t18.5 -30.5 t22 -29.5q60 -57 146 -57h-203q-110 0 -155 45q-28 29 -60 96l-57 123l-25 -41q-7 -10 -32.5 -48.5t-36.5 -54t-37 -45t-45.5 -42t-49 -24t-61.5 -11.5h-88z" />
<glyph unicode="l" horiz-adv-x="323" d="M-88 0q38 0 65 27q20 26 23 61v1131q0 87 59 143q58 61 144 61h203q-86 0 -144 -61q-53 -50 -59 -127v-1032q0 -83 -60 -146q-60 -57 -143 -57h-88z" />
<glyph unicode="m" horiz-adv-x="1093" d="M-109 811h105q87 0 145 -61q21 -21 37 -50q25 51 76 83t125 32h4q93 0 158 -65q24 -21 37 -50q34 68 91 91.5t142 23.5t143 -61q60 -60 60 -144v-424q6 -71 59 -127q60 -57 144 -57h-203q-87 0 -144 57q-59 59 -59 146v315q-5 35 -30 60.5t-60 29.5h-25q-35 -5 -60 -30 t-28 -60v-430q3 -36 29 -59q29 -29 72 -29h-101q-85 0 -145 57q-60 63 -60 146v315q-5 35 -30 60.5t-60 29.5h-22q-31 -3 -55 -22t-31 -47v-451q3 -34 28 -59q29 -29 72 -29h-100q-87 0 -144 57q-61 61 -61 146v418q0 56 -11 95.5t-29 58.5t-35 26.5t-34 7.5z" />
<glyph unicode="n" horiz-adv-x="722" d="M-111 813h107q83 0 145 -59q22 -26 37 -49q25 51 76 82.5t125 31.5h4q225 0 225 -295v-432q3 -31 29 -61q30 -27 74 -27h-103q-85 0 -145 57q-57 60 -57 146v317q-6 35 -32 60.5t-61 29.5h-22q-32 -5 -55.5 -23.5t-30.5 -47.5v-451q3 -34 28 -59q29 -29 72 -29h-100 q-87 0 -144 57q-61 61 -61 148v416q0 106 -34.5 147t-76.5 41z" />
<glyph unicode="o" horiz-adv-x="714" d="M-109 811h502q83 0 144 -61q57 -57 57 -142v-422q6 -75 59 -125q59 -59 144 -59h10h-606q-83 0 -142 59q-61 58 -61 144v516q0 35 -27 59q-36 31 -80 31zM197 197q0 -29 21 -50.5t50 -21.5q31 0 52.5 21.5t21.5 50.5v419q0 29 -21.5 50.5t-52.5 21.5q-29 0 -50 -21.5 t-21 -50.5v-419z" />
<glyph unicode="p" horiz-adv-x="704" d="M-193 -618l207 2q86 3 144 61q51 51 51 111v348q3 41 29 67q25 28 61 31h117q87 8 147 57t60 134v415q0 84 -62 146q-61 61 -145 61h-207h-2q-81 0 -148 -61q-57 -60 -57 -146v-1048q0 -70 -53 -123q-55 -55 -134 -55h-8zM254 219v426q0 31 22.5 53.5t53.5 22.5 q32 0 54 -22.5t22 -53.5v-426q0 -32 -22 -54t-54 -22q-31 0 -53.5 22t-22.5 54z" />
<glyph unicode="q" horiz-adv-x="706" d="M0 209v389q0 86 59 145q28 27 57 42.5t67 21.5t60 7t72 1q79 0 133.5 -10.5t76 -23t40.5 -31.5q38 -38 53 -111v-1030v-4q0 -84 -59 -152q-60 -63 -145 -63v-4l-209 -4h9q83 0 138 55q59 56 62 125v366q-3 29 -29 52q-19 22 -66 22h-114q-85 0 -146 61q-59 59 -59 146z M158 213q0 -30 22 -53t53 -23q30 0 50 23t20 53v401q0 31 -20 52.5t-50 21.5q-32 0 -53.5 -21.5t-21.5 -52.5v-401z" />
<glyph unicode="r" horiz-adv-x="663" d="M-86 0q37 0 66 29q22 25 22 59v522q0 90 57 144q58 61 144 61h219q72 3 129 57q59 62 59 146v-203q0 -83 -59 -145q-63 -60 -143 -60h-115q-38 -3 -62 -30q-25 -25 -28 -60v-317q0 -84 -60 -144q-56 -59 -141 -59h-88z" />
<glyph unicode="s" horiz-adv-x="665" d="M-10 -207l12 10l-2 197h-2v9q0 82 53 132q59 62 144 62h184q-31 34 -88.5 84.5t-104.5 90.5t-93.5 91t-70.5 94q-20 37 -20 78q0 7 1 13q4 48 46 91q59 62 144 62h217q71 3 125 57q59 59 59 144l2 -201q0 -85 -61 -143q-60 -60 -142 -60h-184q24 -21 67.5 -57.5 t77.5 -64.5t76 -67t70.5 -71.5t52.5 -71.5q25 -39 31 -73q2 -13 2 -26q0 -22 -7 -45q-11 -37 -44 -69q-59 -59 -142 -59h-217q-76 -3 -127 -57q-45 -47 -59 -150z" />
<glyph unicode="t" horiz-adv-x="395" d="M-109 1421h13h96q84 0 141 -57q62 -62 62 -145v-410q37 16 63 45q62 62 62 145v-204q0 -84 -62 -146q-28 -28 -63 -43v-418q3 -70 57 -127q59 -59 146 -59h-203q-87 0 -146 59q-57 57 -57 144v1128q-3 35 -31 60q-32 28 -78 28z" />
<glyph unicode="u" horiz-adv-x="714" d="M0 287v317q0 86 57 146q62 59 146 59h102q-42 0 -74 -29q-25 -28 -28 -61v-432q5 -35 31 -61t61 -31h22q31 5 55 24t31 47v336q0 86 62 148q59 59 143 59h103q-42 0 -74 -29q-26 -30 -29 -61q0 -89 1 -267.5t1 -267.5q0 -56 11 -96t29 -58.5t35 -26t34 -7.5h-109 q-85 0 -147 59q-22 25 -37 49q-55 -111 -201 -114v6h-14q-43 0 -74 11q-36 13 -71 48q-30 30 -45 71.5t-18 74t-3 86.5z" />
<glyph unicode="v" horiz-adv-x="714" d="M0 293v317q0 87 57 144q59 59 146 59h102q-45 0 -74 -29q-25 -25 -28 -59v-432q4 -35 29.5 -60.5t60.5 -31.5h24q31 5 54 24.5t32 48.5v334q0 89 60 146q59 59 145 59h101q-43 0 -72 -29q-26 -23 -29 -59v-330q0 -7 0.5 -31t0.5 -35t-1.5 -33.5t-5 -35t-9.5 -32t-15 -30 t-23 -24t-32 -20.5t-42.5 -12t-54.5 -5q-30 -61 -84.5 -99t-116.5 -38q-53 0 -89 13.5t-70 49.5q-42 41 -54 94.5t-12 135.5z" />
<glyph unicode="w" horiz-adv-x="1091" d="M0 205v405q0 85 57 142q61 61 146 61h100q-44 0 -72 -31q-25 -22 -28 -59v-430q3 -38 28 -60q25 -25 60 -28h24q35 3 60 28t31 60v317q0 85 57 142q61 61 145 61h101q-43 0 -74 -31q-24 -24 -27 -59v-430q3 -36 27 -60q29 -25 61 -28h23q32 3 61 28q26 26 29 60v317 q0 83 59 142q61 61 144 61h202q-85 0 -143 -61q-53 -50 -59 -125v-314q0 -89 -43.5 -131.5t-134.5 -42.5q-68 -137 -218 -137q-52 0 -83.5 11.5t-65.5 45.5q-21 21 -37 50q-15 -31 -35 -52t-38 -31.5t-48 -16t-50 -6.5t-58 -1q-82 0 -144 59q-57 57 -57 144z" />
<glyph unicode="x" horiz-adv-x="837" d="M-82 96q23 -21 60 -21h6q41 2 63 36l176 274l-106 162q-55 85 -55 144q0 55 49 87q21 13 42.5 20.5t48 10.5t43.5 3q6 0 13 1q15 0 37 -1q33 -1 47 -1q-47 0 -68.5 -24t-19.5 -52t16 -51l74 -111l55 86l52 68q50 68 131 80q15 2 30 2q63 0 119 -41l80 -59q-29 20 -65 20 h-9q-35 -6 -59 -33l-96 -129l-115 -180l184 -276q20 -26 56 -35q8 -1 15 -1q32 0 60 17l-82 -55q-53 -35 -119 -35q-15 0 -32 2q-85 18 -131 88l-70 103l-72 -115q-50 -68 -133 -80q-19 -3 -37 -3q-64 0 -112 36zM-70 291h2h-2z" />
<glyph unicode="y" horiz-adv-x="743" d="M0 203v73v334q0 85 59 144t144 59h100q-41 0 -72 -31q-25 -25 -28 -59v-428q3 -37 28 -62t60 -28h24q35 3 60 28t31 62v315q0 88 59 144q59 59 143 59h101q-41 0 -72 -31q-26 -26 -29 -59l-2 -741v-385v-3q0 -88 -59 -147q-59 -62 -144 -65l-200 -3h-9q-80 0 -137 54 t-57 135v-2v217q0 -104 57 -164q53 -56 127 -65l129 -3q36 0 62 23q25 22 28 53v299q-3 32 -28 54q-21 19 -62 22h-110h-2q-82 0 -144 59q-57 57 -57 142z" />
<glyph unicode="z" horiz-adv-x="673" d="M-23 1016v-8q0 -82 56 -138q54 -54 127 -57h217q84 0 145 -61q44 -42 48 -90q1 -8 0 -16q0 -40 -20 -76q-24 -44 -70 -96t-93.5 -92t-105 -91.5t-88.5 -85.5h12h203q70 3 127 57q57 57 57 146v-203q0 -87 -57 -144q-62 -59 -146 -59h-203q-84 0 -141 57q-33 33 -44 70 q-7 23 -7 45q0 13 2 26q6 34 30.5 74t53 72.5t70.5 72.5t76.5 68t78.5 65t68 58h-189q-83 0 -141 58t-61 145h-2z" />
<glyph unicode="|" horiz-adv-x="415" d="M-53 -162q37 -3 65 25q26 23 29 53v-2v1507q0 85 57 142q61 61 144 61h102q-43 0 -74 -31q-28 -28 -28 -59v-1511q0 -83 -60 -146q-57 -60 -141 -63v-2v-5z" />
<glyph unicode="~" horiz-adv-x="856" d="M45 1020q-18 58 6 110q31 64 94 87q61 21 127 -7l205 -98q59 -26 91.5 -25.5t41 21.5t2 48t-25 53t-39.5 36l131 -63q56 -27 74 -84q19 -55 -7 -111q-29 -62 -94 -86q-64 -21 -125 6l-225 107q-94 44 -113 -7q-13 -38 18 -90q19 -33 44 -45l-131 64q-56 27 -74 84z" />
<glyph unicode="&#xad;" horiz-adv-x="792" d="M33 424v84q0 70 47 117q52 49 119 49h413q26 0 50 24t24 60v-84q0 -67 -49 -119q-50 -47 -117 -47h-414q-26 0 -51 -25q-22 -25 -22 -59z" />
<glyph unicode="&#xc9;" horiz-adv-x="1064" d="M0 203v1018q0 87 59 143q59 59 142 59h2h598q84 0 143 -59q60 -57 60 -143v-103q0 45 -29 74q-33 29 -62 29h-598q-30 0 -59 -29q-26 -26 -29 -62v-346h371q70 3 127 60q59 56 59 143v-203q0 -86 -59 -145t-143 -59h-355v-289q0 -31 29 -60q28 -28 59 -28h598q34 0 62 28 q29 29 29 72v-100q0 -86 -60 -146q-57 -57 -143 -57h-598h-2q-85 0 -142 57q-59 59 -59 146z" />
<glyph unicode="&#xe0;" horiz-adv-x="702" d="M-25 1307q-3 -47 27 -84q31 -31 68 -31h290q97 0 164 -70q68 -65 68 -161l10 -115q-43 115 -143 115h-250q-95 0 -162 67q-64 64 -67 164h-3zM-2 205q0 84 57 141q62 62 146 62h112q35 3 60 28q23 21 30 60v24q-7 39 -30 62q-25 25 -60 28h-112h-2q-81 0 -144 60 q-57 60 -57 143v205q0 -86 57 -146q56 -53 127 -59h221q88 0 144 -59q59 -59 59 -144v-405q0 -84 -59 -146q-59 -59 -144 -59h-202h-2q-82 0 -144 59q-57 60 -57 146zM143 205q0 -31 21.5 -52.5t52.5 -21.5t52.5 21.5t21.5 52.5q0 29 -21.5 50t-52.5 21t-52.5 -21t-21.5 -50 z" />
<glyph unicode="&#xe1;" horiz-adv-x="702" d="M-2.5 810q-13.5 92 5.5 180.5t60 131.5q67 70 164 70h328q36 0 70 31q32 35 32 84v-115q0 -97 -67 -164t-162 -67h-244q-104 0 -104 -74q0 -37 24.5 -53t77.5 -21h219q88 0 144 -59q61 -58 61 -144v-405q0 -85 -61 -146q-59 -59 -144 -59h-198h-2q-82 0 -144 59 q-57 60 -57 146q0 84 57 141q62 62 146 62h112q34 3 62 28q26 26 29 60v24q-3 33 -29 62q-28 25 -62 28h-112h-2q-81 0 -144 60q-46 48 -59.5 140zM141 205q0 -31 21.5 -52.5t52.5 -21.5t52.5 21.5t21.5 52.5q0 29 -21.5 50t-52.5 21t-52.5 -21t-21.5 -50z" />
<glyph unicode="&#xe2;" horiz-adv-x="702" d="M-6 918q-1 170 77 258t205 88q121 0 206 -84.5t85 -204.5q0 -55 -18 -105q-33 85 -107 137t-166 52q-111 0 -172 -70q-47 -53 -32 -107q15 -56 90 -64q10 -1 20 -1h221q86 0 144 -61q61 -58 61 -144v-407q0 -85 -61 -146q-59 -59 -144 -59h-196h-2q-85 0 -144 59t-59 146 t59 143q59 62 146 62h112q38 3 60 28q28 25 31 60v24q-3 34 -31 62q-25 25 -60 28h-112h-2q-52 0 -90.5 18.5t-61 47t-36 71t-18 81.5t-5.5 88zM143 205q0 -31 21.5 -52.5t52.5 -21.5q29 0 50.5 21.5t21.5 52.5t-21.5 52.5t-50.5 21.5q-31 0 -52.5 -21.5t-21.5 -52.5z" />
<glyph unicode="&#xe3;" horiz-adv-x="702" d="M0 205q0 84 59 143q63 60 146 60h112q34 3 62 28q26 30 29 62v22q-3 36 -29 62q-27 24 -62 30h-112h-2q-83 0 -144 58q-59 62 -59 145q0 5 1 81t1 101q4 46 33.5 89.5t73.5 70.5q79 52 178 25q60 -13 168 -107q58 -52 94 -61q34 -8 59 4q38 24 44.5 72.5t-17.5 85.5 q-30 52 -88 67l139 -39q58 -15 88 -65q34 -72 5 -145.5t-95 -114.5q-75 -45 -168 -21q-62 16 -166 109q-59 59 -96 69q-37 9 -68 -10q-41 -27 -51.5 -78.5t11.5 -92t63 -40.5h199q85 0 143 -61q61 -58 61 -142v-407q0 -85 -61 -146q-59 -59 -143 -59h-203h-2q-82 0 -144 59 q-59 62 -59 146zM147 205q0 -31 21.5 -52.5t52.5 -21.5t52.5 21.5t21.5 52.5q0 29 -21.5 50t-52.5 21t-52.5 -21t-21.5 -50z" />
<glyph unicode="&#xe4;" horiz-adv-x="700" d="M0 205q0 86 57 143q62 62 146 62h112q38 3 60 28q28 25 31 60v24q-3 35 -31 60q-21 23 -60 30h-112h-2q-81 0 -144 60q-57 57 -57 143v205q0 -86 57 -146q53 -53 127 -59h222q87 0 143 -59q59 -56 59 -144v-407q0 -88 -59 -144q-59 -59 -143 -59h-203h-2q-82 0 -144 59 q-57 57 -57 144zM74 1065q0 40 28 68t68 28t68 -28t28 -68t-28 -68t-68 -28t-68 28t-28 68zM145 205q0 -31 21.5 -52.5t52.5 -21.5t52.5 21.5t21.5 52.5t-21.5 52.5t-52.5 21.5t-52.5 -21.5t-21.5 -52.5zM328 1065q0 40 28 68t68 28t67 -28t27 -68t-27 -68t-67 -28t-68 28 t-28 68z" />
<glyph unicode="&#xe5;" horiz-adv-x="702" d="M2 205q0 84 59 143q60 60 146 60h110q37 3 62 28q26 29 31 62v22q-6 37 -31 62q-24 24 -62 30h-110h-2q-83 0 -144 58q-59 62 -59 145v197q0 104 37 172q44 83 120.5 118t155.5 11q70 -20 113 -80q51 -71 37.5 -155.5t-84.5 -135.5q-46 -34 -108.5 -39t-100.5 19 q-55 31 -84 79q0 -3 -0.5 -27t0 -31.5t2.5 -29.5t5.5 -31.5t11 -25t18 -22.5t26.5 -13t37 -6h222q83 0 141 -61q61 -58 61 -142v-407q0 -86 -61 -144q-59 -59 -141 -59h-203h-2q-82 0 -144 59q-59 59 -59 144zM150 205q0 -31 21 -52.5t52 -21.5q29 0 50.5 21.5t21.5 52.5 t-21.5 52.5t-50.5 21.5q-31 0 -52 -21.5t-21 -52.5zM169 1129q0 -35 24 -66q54 -79 122 -29q35 26 35.5 62.5t-22.5 62.5q-23 33 -53.5 43.5t-71.5 -12.5q-34 -26 -34 -61z" />
<glyph unicode="&#xe6;" horiz-adv-x="1089" d="M0 209q0 84 59 143q62 62 146 62h112q37 3 62 28t31 60v24q-6 37 -31 62q-24 24 -62 30h-112h-2q-84 0 -144 60q-59 59 -59 135v205q0 -84 59 -146q53 -53 127 -59h197q52 0 89 -25.5t52 -74.5q9 45 43.5 71.5t79.5 26.5h178q83 0 142 -59q61 -58 61 -144q0 -82 -61 -143 q-59 -59 -142 -59h-114q-34 -3 -60 -29q-25 -25 -28 -62v-22q3 -34 28 -62q23 -23 60 -26h131q71 3 125 57q61 61 61 144v-201q0 -85 -61 -146q-57 -57 -142 -57h-176q-47 0 -85.5 20t-49.5 62q-11 -42 -49.5 -62t-85.5 -20h-174h-2q-80 0 -144 61q-59 62 -59 146zM147 209 q0 -31 21.5 -52.5t52.5 -21.5t52.5 21.5t21.5 52.5t-21.5 52.5t-52.5 21.5t-52.5 -21.5t-21.5 -52.5zM707 606q0 -31 21 -52.5t52 -21.5t52.5 21.5t21.5 52.5t-21.5 52.5t-52.5 21.5t-52 -21.5t-21 -52.5z" />
<glyph unicode="&#xe7;" horiz-adv-x="698" />
<glyph unicode="&#xe8;" d="M-25 1307q-3 -47 27 -84q31 -31 68 -31h290q97 0 164 -70q68 -65 68 -161l10 -115q-43 115 -143 115h-250q-95 0 -162 67q-64 64 -67 164h-3zM0 205v405q0 89 55 144q61 61 146 61h202q86 0 144 -61q61 -58 61 -144q0 -82 -61 -143q-59 -59 -144 -59h-114q-34 -3 -60 -29 q-25 -28 -28 -62v-24q3 -35 28 -60t60 -28h131q77 6 127 59q61 58 61 144v-203q0 -85 -61 -146q-57 -57 -144 -57h-202h-2q-84 0 -144 57q-55 58 -55 146zM285 608q0 -31 22 -52t53 -21q30 0 52 21.5t22 51.5t-22 52t-52 22q-31 0 -53 -21.5t-22 -52.5z" />
<glyph unicode="&#xe9;" d="M-2 846l10 115q0 96 68 161q67 70 164 70h290q37 0 68 31q30 37 27 84l-2 -115h-2q-3 -99 -68 -164q-67 -67 -162 -67h-250q-100 0 -143 -115zM0 205q0 -88 55 -146q60 -57 144 -57h2h202q87 0 144 57q61 61 61 146v203q0 -86 -61 -144q-50 -53 -127 -59h-131 q-35 3 -60 28t-28 60v24q3 34 28 62q26 26 60 29h114q85 0 144 59q61 61 61 143q0 86 -61 144q-58 61 -144 61h-202q-85 0 -146 -61q-55 -55 -55 -144v-405zM285 608q0 31 22 52.5t53 21.5q30 0 52 -22t22 -52t-22 -51.5t-52 -21.5q-31 0 -53 21t-22 52z" />
<glyph unicode="&#x2000;" horiz-adv-x="830" />
<glyph unicode="&#x2001;" horiz-adv-x="1661" />
<glyph unicode="&#x2002;" horiz-adv-x="830" />
<glyph unicode="&#x2003;" horiz-adv-x="1661" />
<glyph unicode="&#x2004;" horiz-adv-x="553" />
<glyph unicode="&#x2005;" horiz-adv-x="415" />
<glyph unicode="&#x2006;" horiz-adv-x="276" />
<glyph unicode="&#x2007;" horiz-adv-x="276" />
<glyph unicode="&#x2008;" horiz-adv-x="207" />
<glyph unicode="&#x2009;" horiz-adv-x="332" />
<glyph unicode="&#x200a;" horiz-adv-x="92" />
<glyph unicode="&#x2010;" horiz-adv-x="792" d="M33 424v84q0 70 47 117q52 49 119 49h413q26 0 50 24t24 60v-84q0 -67 -49 -119q-50 -47 -117 -47h-414q-26 0 -51 -25q-22 -25 -22 -59z" />
<glyph unicode="&#x2011;" horiz-adv-x="792" d="M33 424v84q0 70 47 117q52 49 119 49h413q26 0 50 24t24 60v-84q0 -67 -49 -119q-50 -47 -117 -47h-414q-26 0 -51 -25q-22 -25 -22 -59z" />
<glyph unicode="&#x2012;" horiz-adv-x="792" d="M33 424v84q0 70 47 117q52 49 119 49h413q26 0 50 24t24 60v-84q0 -67 -49 -119q-50 -47 -117 -47h-414q-26 0 -51 -25q-22 -25 -22 -59z" />
<glyph unicode="&#x2013;" horiz-adv-x="1163" d="M33 424v84q0 70 74 117q81 49 186 49h648q41 0 78.5 24t37.5 60v-84q0 -67 -77 -119q-78 -47 -183 -47h-650q-40 0 -80 -25q-34 -25 -34 -59z" />
<glyph unicode="&#x2014;" horiz-adv-x="2187" d="M33 424v84q0 70 147 117q163 49 374 49h1295q81 0 156.5 24t75.5 60v-84q0 -67 -154 -119q-156 -47 -367 -47h-1298q-82 0 -160 -25q-69 -25 -69 -59z" />
<glyph unicode="&#x202f;" horiz-adv-x="332" />
<glyph unicode="&#x205f;" horiz-adv-x="415" />
<glyph unicode="&#x25fc;" horiz-adv-x="808" d="M0 0v809h809v-809h-809z" />
</font>
</defs>
</svg>
